Les Baxter Discography Blogspot

Naxos Blog. The 101 Strings), Simba and whatever else you want! Plays Les Baxter along with similar artists like. Jazz, funk, music from one of the Tracklib-curated collections, flip children's songs or go punk, or explore one of the recent additions by exotica pioneer Les Baxter and reggae/dub legends Sly & Robbie. Les Baxter’s own music of the sixties was mostly soundtrack work. Show all albums by Les Baxter. Labels: band, Basement, discography, download, Ipswich, melodic hardcore, pop punk, Suffolk, uk, zip. Listen to music from Les Baxter. 7 (2) Shade (Can) (2) Shadow Of The Destroyer (1) Shadow Ov Fenris (1) Shadow's Mortuary (2) Shadowcraft (1) Shadowflag (1). I also have a Les Baxter Piano Book and the songs were all from that LP. The song was performed by Les Baxter. - Vancouver 2012, p. Recorded directly onto hard disc. Confirmation letter was sent to $[p1]. "I always wanted to write an album that sounds as a wedding and a funeral at the same time" dit-il en parlant de son dernier album justement. 101 NORTH (2) 2 Good To Go (1). 4 years ago4 years ago. 2 views this month. 1,160 Photos. All I have of that period is The Exotic Moods of Les Baxter, which is a 40 track mish-mash of material from 1947-1960. Alone In The Forest 4. Create & stream a free c. wav" WAVE TRACK 01 AUDIO TITLE "The Pit And The Pendulum" PERFORMER "Les Baxter" PREGAP 00:00:30 INDEX 01 00:00:00 FILE "02 Les Baxter - The Sphinx. Citizens Arrest was a hardcore punk band from New York, USA that existed from 1988-1990. Wherever exotica went, Les Baxter was there, often leading the way. Música instrumental é aquela que é valorizada pela condução instrumental, com pouco ou nenhum vocal. Blues In Bloom (Norman Mapp) 4:14 9. Featured New Releases Les Baxter Biography by Stephen Thomas Erlewine + Follow Artist. (1) Seules Les Mortes (1) Seven Deadly Sins (1) Seventh (2) Seventh Genocide (4) Severe Storm (1) Severnaya (1) Severoth (4) Seviss (1) Sewercide (1) Sexdrome (1) Sg. - New York 1987, pp. Save Your Love For Me (Buddy Johnson) 3:57 6. Thursday, June 21, 2018. I like the band's logo in which both arrows indicate the way you can read "Piano" and "Cajon". Les Baxter discography and songs: Music profile for Les Baxter, born 14 March 1922. Lk21 Layarkaca21 Dunia21 Nonton Movie Streaming dan Download Film Subtitle Indonesia Gratis Online Bioskopkeren Ns21 Indoxxi Indoxx1 21Cineplex Dewanonton Ganool Anime Bioskop Cinemaindo XXI Bluray HD. LES BAXTER CLAIM THIS BUSINESS. ! Depuis 2010, j'ai élargi cette bible avec la participation active de Jean Paul Ribes et de Florent Recica (Suède). 02 - Shaft! (03:15). Just check out my blog for the details. Hellhound - tokyo flying V massacre 2006 (vinyl rip). 1 jaar geleden Heino und Jerry im Über Space. Wonderful blog you have herthanks 10 november 2011 om 23:01 Mike B zei Les Baxter Tribute. - Vancouver 2006, p. Quiet Village - Les Baxter (1951). Seleciono aqui alguns dos maiores hits instrumentais do Século. Attack Of The Newspaper Man 8. The Exotic Worlds OfLes Baxter! Vol. a treasure trove full of surprises that. Lavorato artigianalmente per ottenere divani, poltrone, letti, sedie e complementi d'arredo unici e irriproducibili. Torlock is a fast BitTorrent search engine that only lists verified torrents. I like the band's logo in which both arrows indicate the way you can read "Piano" and "Cajon". What does that say about my sad existence? !!!! A little point if I may, I looked up there discography on wikipedia (i know, not always anywhere near accurate) but it doesn't list this album at all) Maybe it's rare gem. Liens vers les Torrents. Customize your pictures with the Glitterfy Glitter Graphics maker, Create words with Glitter Text for profile comments, Photo Flipbooks for Orkut Scraps. • Heartbreak Hotel: Elvis’s first RCA release reached #1 on the “Top 100” on May 5, 1956, knocking Les Baxter’s “The Poor People of Paris” from the top spot. Track 18 - Dank / Les Hurdle & Frank Ricotti Track 19 - You Were Right, I Was Wrong / Trevor Duncan Track 20 - Top Score / Keith Mansfield Track 21 - The Lady Likes / Mike Moran Track 22 - Computer Programmer / Sam Sklair & Gus Galbraith Track 23 - Bass Drive / Shury, McDonald, Rae Track 24 - Feeling Tense / Stefano Torossi. Midnight On The Cliffs. USA 1970 01. Les Baxter-Bora Bora OST (VBR) Bora Bora was a romantic film directed by Ugo Liberatore filmed in 1968 and released in 1970. Albums include Music Out of the Moon, Inherent Vice, and Le sacre du sauvage (Ritual of the Savage). Discography of Les Baxter. Mais le thème du concept album Schoolboys In Disgrace (1975) est original et, peut-être, le plus cohérent de Ray Davies. Movies on Putlockers are updated daily. Descarga tu discografia favorito en solo 1 link ( totalmente gratis ). Les Baxter, Soundtrack: Hitman: Agent 47. 25 May 1950 [no 1763] Capitol Recording Studio, 5515 Melrose Ave. The idea was to give listeners an aural glimpse into the glamorous, jet-setting lifestyle of Les Baxter, England’s most notorious and irresistibly handsome playboy. Les Baxter - Fantasie Impromptu (Chopin) Les Baxter - Clair De Lune (Debussy) Les Baxter - Prelude in C minor (Rachmaninoff) The Doors - The Severed Garden Messer Chups - Tchaikovsky Beat Henry Mancini - Moonlight Sonata Quincy Jones - Greensleeves and All That Jazz Gershon Kingsley - For Alisse Beethoven Swingle Singers - Aria France Gall - I. In his career, he has score more than 120 films, with 15 titles in 1957 alone!. Discography (142). We offer you the best music from all over the world at lowest prices and highest quality!. It has been an incredible journey filled with many ups and downs but the time has come for me to say farewell and move on. Des offres d'emploi : Baxter comme Quality Assurance Analyst, Project Planner (m/v), Consultant (H/F) sont disponibles sur Indeed. He did a lot of production Music which is featured in the TV show It's Always Sunny in Philadelphia. com, reklamsız ve yüksek kaliteli Full HD film izlemenin keyfini yaşayın. Les Baxter) Play on Spotify - Lunar Rhapsody (feat. Tracklist: A1 - Shooting Star - 2:01 A2 - Moonscape - 3:07 A3 - Mr. Today is Funky Frolic's 2nd anniversary. Use cases: Volumes are most useful when you need more storage space but don't need the additional processing power or memory that a larger Droplet would provide, like:. There was an immense tangle of stuff, including the metal box below. Many of Les' original scores are in the archives of University of Arizona and can be examined for authenticity (and have been by Baxter music scholars including: Keith Pawlak (archivist), Skip Heller (student and friend of Les), James Spencer (author of Les' bio), Jeff Chenault (wrote a discography of Les, and foreword for Baxter bio) 3. Too Young » Nat King Cole 02. Mitch Woods - Friends Along The Way (Bonus Track Edition) (2017). 071- En Sakonji i les seves Nines!. Alone In The Forest 4. Les Boom 18-track mashup album; Kenny & The Casuals Remix; Les Rita Mitsouko vs The Beatles; Bjork vs The Music Emporium; They Might Be Giants vs William Orbit; Cardi B vs Fatboy Slim vs Darren Emerson; C. LES SPRITZ (1). Latin All-stars, Buddy Collette, Carlos Mejia, Darias, Eddie Cano, Larry Bunker, Tommy Tedesco, Tony Reyes, Les Baxter and Dr Samuel J Hoffman, Les Baxter. I'm Sorry 3. Bongo Party with Les Baxter (1957) Round the World with Les Baxter (1957) Midnight on the Cliffs (1957) Ports of Pleasure (1957) Pharaoh's Curse (aka) Curse of the Pharaoh (1958) Space Escapade (1958) Selections from Rodgers and Hammerstein's South Pacific (1958) Confetti (1958) Love is a Fabulous Thing (1959) African Jazz (1959) Les Baxter's. Jumpstyle (lossless) Drum & Bass, Jungle, Breakbeat, Dubstep, IDM, Electro Drum & Bass (Lossy) Drum & Bass (lossless) Dubstep (lossy) Dubstep (lossless) Breakbeat (lossy) Breakbeat (lossless) IDM (lossy) IDM (lossless) IDM Discography & Collections. Les Baxter (7) Les Humphries (1) Les Reed (2) library (4) Living Brass and Living Marimbas (1) Living Presence Stereo (3) London Pops Orchestra (1) Los Bandidos (1) Lounge (19) Loungecore (1) Malcolm Lockyer Orchestra (1) Mambo (1) Man From UNCLE (1) Man In A Suitcase (1) Mantovani (3) Manuel And The Music Of The Mountains (2) Marble Arch (9. Popcorn (album) [2001]. The Upbeats feat. Via an Anonymous Source, Posted by Adam White Redline Distribution 18 years ago. Les Baxter, que apareció por última vez en público en el Century Club de Century City en noviembre de 1995, falleció el 15 de enero de 1996. Hayato and Hiro make →Pia-no-jaC←, a piano + cajon duo since 2005. Baxter DJ maneja el concepto de música para boda a la carta, tratando de hacer un vestido a la medida para tu boda en términos musicales, adaptando la programación de la música de tu boda a tus gustos y los de tus invitados. Les Baxter wrote Xtabay (Lure of the Unknown Love), Quiet Village, Busy Port and Sinner Man. I have one Don Tiare record The Music of Les Baxter. 世界中のあらゆる情報を検索するためのツールを提供しています。さまざまな検索機能を活用して、お探しの情報を見つけてください。. Shop for Vinyl, CDs and more from Les Baxter at the Discogs Marketplace. The Dunwich Horror – Black Mass (Les Baxter) Boardinghouse – Opening Theme (33 1/3? Kalassu? Teeth?) ———— Fiend For Flesh – Coming Attraction The Stuff – 2 commercials ———— Trick Or Treat – Trick Or Treat (Fastway) Hard Rock Zombies – Zombies Lure Ghouls (Paul Sabu) Rocktober Blood – Killer On The Loose (Sorcery). Quality: FLAC 24 bit / 96 kHz (Tracks)Artist: Les BaxterTitle: Selections From Rodgers And Hammerstein's South PacificReleased: 2020Style: Easy Listening, Musical, Space-AgeRAR Size: 505 MbTracklist:01. Browse All Les Baxter Sheet Music Musicnotes features the world's largest online digital sheet music catalogue with over 300,000 arrangements available to print and play instantly. Les Baxter Biography Leslie Thompson Baxter (March 14, 1922 – January 15, 1996) was an American musician and composer. 0 out of 5 stars Get the 4 " Les Baxter: Eight Classic Albums" instead. Tout commentaire dans le chat, les mots obscènes ou malveillants et offensants l'IP sera dénoncé et bloqué. Jam & Spoon - Right in The Night 13. COM http LAST 10 MEDIAFIRE SEARCHES: aneki ep 3, the exotic moods of les baxter blogspot, intitle index of patch office 2013, buschido zeiten, pna. A blog about Art, Design, Film, Music, Photography, Daily Junk and Projects. 0 : Les Baxter And The Bombers A: Blue Mirage B: I Ain't Mad At You: Capitol UK: CL 14249: Apr 1955: 7" 0 : Les Baxter, His Chorus And Orchestra A: Unchained Melody B: The Medic Theme: Capitol UK: CL 14257: May 1955: 7" 3: 10. ) Click on the comments tab below to give your pennies worth and read what others have posted. 100% coronavirus-free content. Tequila / The Champs 1958 #1 (5) 14. That collection isn't arranged in any logical kind of way, so in my mind that material "all sounds the same. and marketing efforts, and for analysis of your use of our products and services. French pop at its craziest. Find the latest tracks, albums, and images from Les Baxter. If » Perry Como 09. 101 Strings Orchestra – Tropicana. Founded 2010; Incorporated ; Annual. I am 43 years old and enjoying discovering and sharing great music from years gone by. English Italiano Français Español 中文 العربية. Too Young » Nat King Cole 02. Midnight on the Cliffs (Capitol Records - T843) Midnight on the Cliffs Wake the Town and Tell the People End Of Spring. I'm a bloke just turned fifty living in Newcastle, a wonderful city in the North East of England. Desert Column Forum. Madonna - Discography (1983 - 2019). Get free Outlook email and calendar, plus Office Online apps like Word, Excel and PowerPoint. Les Baxter - タワーレコード. Download on Amazon - Lunar Rhapsody (feat. Les Baxter | South Pacific Exotica pioneer whose blend of Polynesian forms and orchestral arrangements appealed to the bachelor pad set of the 1950s and '60s. Les Baxter is the originator of the Exotica sound. Genres: Exotica, Film Score, Space Age Pop. Les Baxter Wild In The Streets I have been trawling around the Net this PM looking for material for my next mix as well as delving into my collection for sounds. He learned to play the piano at five years of age and studied at the Detroit Conservatory and at Pepperdine College in Los Angeles, California (his uncle was the college's first president). Cobblestone Records Discography 7 years ago. "I always wanted to write an album that sounds as a wedding and a funeral at the same time" dit-il en parlant de son dernier album justement. Abandoning a concert career as a pianist, he turned to popular music as a singer. Latin All-stars, Buddy Collette, Carlos Mejia, Darias, Eddie Cano, Larry Bunker, Tommy Tedesco, Tony Reyes, Les Baxter and Dr Samuel J Hoffman, Les Baxter. Les Baxter's Balladeers were a 1960s folk group formed by band leader Les Baxter. Piece by piece my body is tattooed with motifs from legendary tiki bar menues of the 50s and 60s. Blogger makes it simple to post text, photos and video onto your personal or team blog. It does have some 70s touches (wahwah guitar or synth bloops) on some of the tracks that makes it sit in better company with 70s exotica LPs like Nardini's or Michel Magne's but many of the tracks could sit comfortably, if not intimately, with your Denny's and Baxter's. So, they developed customized Children’s games utilizing popular adult music combined with an array of props that involves active participation of every child. I was offered a film through an agent who was interested in my music. Sinema, Türk Filmleri, vizyondakiler, diziler ve fragman Portalınız. Frank Pourcel - Les Baxter's La Femme (Capitol Records - T10015) Les Levres Les Bras Les Yeux La Taille Les Doigts Les Seins Les Hanches Le Lobe Des Oreilles La Chevelure Le Mollet Les Cuisses La Nuque. but rather a new fabulist writing under the handle "Baxter Dmitry. Let us hear your story: You can tell your story, make a comment or ask for help on our forum. Below are his official mixtapes, collabs, and related albums, including releases from the surrenderdorothy side-project with producer Greaf among others. De Madrid à Istanbul, en passant par la Terre Adélie, nos deux aventuriers découvrent des lieux emblématiques sous les traits inspirés de Delphine Jacquot. To enable this, create a smart collection named All Products and set the condition to 'Product price is greater than 0'. La mejor información deportiva en castellano actualizada minuto a minuto en noticias, vídeos, fotos, retransmisiones y resultados en directo. Create & stream a free c. Baxter conducted a number of. Seleciono aqui alguns dos maiores hits instrumentais do Século. Because Of You » Tony Bennett 03. L'Homme et les Armes de George Bernard Shaw Télécharger L'Homme et les Armes Télécharger Science interdite : Journal 1957-1969, Un scientifique français aux frontières du paranormal PDF eBook En Ligne. Internet Archive is a non-profit digital library offering free universal access to books, movies & music, as well as 477 billion archived web pages. Equipment: ProTools. Read Full Biography. We produce our own music, recruiting artists, mastering and forward we go. Jazz Discography Blogspot This project specifically focuses on vinyl records, the primary medium for commercial music reproduction for a majority of the 20th century. Gérer les cookies. Anyone suggesting or promoting violence in the comments section will be immediately. ‘Happy Birthday Edward Lear’ will feature work by an astonishing range of over 40 artists and illustrators, including Ceri Amphlett, Glen Baxter, Peter Blegvad, Geoff Grandfield, Jonny Hannah, Times cartoonist Morten Mørland, Simon Pemberton, and Vaughan Oliver, who created the artwork for all of the Pixies’ albums. Jim Gordon Discography. His innovative recordings, arrangements, and compositions have influenced a wide range of artists from Jefferson Airplane to Quentin Tarantino. LES BAXTER AND HIS ORCHESTRA AND CHORUS : Les Baxter (arr) Personnel unknown including Danny Welton ° (hca) unknown vcl chorus : Hollywood, Capitol Studios, Melrose Avenue, April 6, 1953 : a: 11402: Ruby ° (omit chorus) Capitol 2457: b: 11403: A Little Love (Can Go A Long, Long Way) Capitol 2457: c: 11404: I Love Paris. You bring the passion, we bring the music! Access more than 56 million tracks, anytime, anywhere!. Les recorded for Capitol Record, Reprise, and others, scored over 200 films, and has a star on the Hollywood Walk of Fame. Les Baxter - The Exotic Moods of Les Baxter My 'odd' review each week usually makes me step outside my comfort zone, and listen to something that normally wouldn't grace my headphones. Leslie Thompson "Les" Baxter (March 14, 1922 - January 15, 1996) was an American musician and composer. Les commentaires de ce blog sont propulsés par Disqus. Special Values. Add to that, yours is orchestrated by Heinz Kiessling. Well, this could be the station for you! We broadcast atomic age easy listening and pop music from the 50s, 60s and early seventies. 164 Followers, 0 Following, 0 Posts - See Instagram photos and videos from Brocabrac. , Les Baxter & Ses Musiciens, Les Baxter & Son Orchestre, Les Baxter A. Hell's Belles - L. Les Baxter-Bora Bora OST (VBR) Bora Bora was a romantic film directed by Ugo Liberatore filmed in 1968 and released in 1970. Baxter, che dentro al canile desidera imparare dagli uomini, passando di casa in casa assorbe invece tutte quelle debolezze tipiche del nostro tempo: diventa irragionevole, diabolico nel voler spodestare il bebè dal centro delle attenzioni, e perfino cattivo quando il novello Führer diventa suo padrone. Unavailable. Claim your free 50GB now. He did a lot of production Music which is featured in the TV show It's Always Sunny in Philadelphia. March 1869 in Coosawattee, Gordon County, Georgia (1880, June 7 1900, 1920 and 1930 census)or in the 20th Civil District of Hamilton County, Tennessee in Calhoun, Gordon County, Georgia discography. Les Rythmes Digitales (1). A pair of classic albums from Clarence Carter – back to back on a single CD, with bonus tracks too! First up is the album This Is Clarence Carter – a seminal debut from the great Clarence Carter – proof that there was still a lot of genius to be heard in southern soul at the time!. This label shot of the A-side at YouTube credits Baxter with writing, arranging and A&R. 73 MB) LES BAXTER The Lost Episode Of Les Baxter Source title: SLUGGISHA. Volumes are region-specific resources. Les Baxter 15 albums. Performed by the Les Baxter Orchestra, Remixed by Atom™. Joan was born on the island of Mallorca, Spain and studied art and illustration at the Escola Superior de Disseny de les Illes Balears. 60: Ritual Of The Savage / The Passions (With Bas Sheva) 2006: 20: 235: Buy now Add to cart. Leon Bismark "Bix" Beiderbecke (March 10, 1903 – August 6, 1931) was an American jazz cornetist, pianist, and composer. Les Baxter wrote Xtabay (Lure of the Unknown Love), Quiet Village, Busy Port and Sinner Man. Les Baxter Born March 14th, 1922 – Died January. Hayato and Hiro make →Pia-no-jaC←, a piano + cajon duo since 2005. Download your favourite discography in just 1 link ( 100% free download ). Birthplace: Liverpool, Lancashire, England, UK. Cette auberge de jeunesse est un Les chambres offrent les commodités et services suivants : l'accès gratuit au Wi-Fi et une douche. Performed by DG, vocals, bean pod; Mark Abbott, vocals, electric…. "Voodoo Dreams" conducted by Les Baxter. I'd love to hear the whole thing. It was a sailboat travelogue, but it initially gave me the chance to do my first picture TANGA TIKA, 1953. • the online freQazoidiac Music Library,. The Poor People Of Paris / Les Baxter 1956 #1 (6) 12. (Trance) [WEB] Craig Connelly Discography / Craig Connelly Дискография (2 Albums, 2 Compilations, 65 Singles) - 2011-2020, FLAC (tracks), lossless. Изучайте релизы Les Baxter на Discogs. Got your Les Baxter right here. Horror Soundtracks - Our wonderful Store. "Baxter developed a post-swing style in the late forties and early fifties of spectacular orchestral writing, full of timpani and hand drums, tumbling violin lines, harps, flutes, marimbas, celesta, Latin rhythm vamps, the cries of animals, choral moans, and flamboyant singers, creating imaginary soundscapes which he helped evoke with titles. Press To Play (album) [2002]. Tout un magazine culturel sur lesinrocks. Anyone suggesting or promoting violence in the comments section will be immediately. A fun blog about collecting and appreciating classic toys, cartoons, video games, movies and more. 2) 1993 Les Plus Grands Succes De Raymond Lefevre (vol. Born March 14, 1922, at Mexia, Texas. Some of Les Baxter's most popular songs include 'Tropicando,' which was featured in the Mad Men soundtrack, and 'Shooting Star,' featured in the The L Word soundtrack. The Poor People Of Paris - Les Baxter - MP3 backing track. Born March 14, 1922, at Mexia, Texas. Soul Groove 04. Frank Pourcel - Les Baxter's La Femme (Capitol Records - T10015) Les Levres Les Bras Les Yeux La Taille Les Doigts Les Seins Les Hanches Le Lobe Des Oreilles La Chevelure Le Mollet Les Cuisses La Nuque. Service limits: Bandwidth limit: up to 250GB per month. Выслать письмо с подтверждением повторно. >Les Baxter Orchestra & Chorus - Santa Claus' Party / Hang Your Wishes on the Tree Senses Working Overtime Selected Entries: >Limited Edition Mini-podcasts: frostie - Christmas Wantlists 1 - Christmas Wantlists 2 - The Odds Against Christmas - merrie - Dreidelicious!. A distance. Einstürzende Neubauten - ALLES IN ALLEM (2020) Vinyl. Anyone suggesting or promoting violence in the comments section will be immediately. - Vancouver 2006, pp. remembering privacy and security settings. Consultez le cours de l'action Baxter International en direct (intraday). Alone In The Forest 4. It has been an incredible journey filled with many ups and downs but the time has come for me to say farewell and move on. Le cours de l'action BAXTER INTL BAX sur Boursorama : historique de la cotation sur NYSE, graphique, actualités, consensus des analystes et informations boursières. - J June 24, 2007 3:39 PM. Maybe Tomorrow 2. El 14 de marzo de 1922 nació en Mexia (Texas) el compositor, arreglista y director de orquesta Les Baxter, uno de los iniciadores con su álbum 'Ritual of the Savage' del movimiento 'exotica', que a comienzos de los años cincuenta contribuyó a que algunas orquestas americanas incluyeran ritmos e instrumentos tradicionales de Oceanía y Hawaii en su repertorio. Les commentaires de ce blog sont propulsés par Disqus. Blogger makes it simple to post text, photos and video onto your personal or team blog. Come On-a My House » Rosemary Clooney 05. Mais au fil de l'album, on se. Spoke is the definitive source of curated information on millions of companies, people and industries. The whole situation seemed bleak to me despite the volunteers from the park service talking with visitors about the river and its original configuration before the sawmills, and the flour mills, and the shoring up of the ruined falls. Les Percussions De Strasbourg - Rains (2019) [FLAC (tracks)]. 0 : Les Baxter And The Bombers A: Blue Mirage B: I Ain't Mad At You: Capitol UK: CL 14249: Apr 1955: 7" 0 : Les Baxter, His Chorus And Orchestra A: Unchained Melody B: The Medic Theme: Capitol UK: CL 14257: May 1955: 7" 3: 10. Grateful Dead - Dave's Picks Volume 35: Philadelphia Civic Center, Philadelphia, PA 4/20/84 (2020). Jersey Bounce / Benny Goodman 1942 #1 (4) 18. Horrifying Discovery 6. To change your Baxter account email, insert the new one in the dedicated field. 1 –Les Baxter I Dig 3:15 2 –Sam Butera Street Scene 3:10 3 –George Auld* All Or Nothing At All 3:34 4 –Curley Hamner / Milt Buckner Bernie's Tune 5:06 5 –King Curtis Watermelon Man 2:36 6 –Nelson Riddle Volare (Nel Blu Di Pinto Di Blu) 2:06. Popcorn (album) [2001]. Les Baxter by Kathy Macqueen | Nov 27, 2019 | Guest Speakers Les presented the results of the survey which he sent out to members recently. FULL DISCOGRAPHY. All the Best. Because Of You » Tony Bennett 03. Ellie Lawson - A Hundred Ways 07. Non può, pertanto, considerarsi un prodotto editoriale ai sensi della legge italiana n. Of his multiple, life altering heroes few rate higher in Big Gay Horror Fan’s book than exquisitely eclectic musician-composer-man of the hour Les Baxter. Blue Tango / Leroy Anderson 1951 #1 (5) 13. Blogger makes it simple to post text, photos and video onto your personal or team blog. He began his career as a concert pianist but later joined Mel Tormé's "Meltones" in 1945. If comic books, pulp fiction, novelty toys, road side attractions, carnival booths, b-movies, cotton candy, 3-D glasses, and trash art are your bag? You'll fit right in. Download movies and series now. wav" WAVE TRACK 01 AUDIO TITLE "The Pit And The Pendulum" PERFORMER "Les Baxter" PREGAP 00:00:30 INDEX 01 00:00:00 FILE "02 Les Baxter - The Sphinx. Grateful Dead - Dave's Picks Volume 35: Philadelphia Civic Center, Philadelphia, PA 4/20/84 (2020). Download Anonymously! Get Protected Today And Get your 70% discount. Everything you need to know about coronavirus, including the latest news, how it is impacting our lives, and how to prepare and protect yourself. Bongo Party with Les Baxter (1957) Round the World with Les Baxter (1957) Midnight on the Cliffs (1957) Ports of Pleasure (1957) Pharaoh's Curse (aka) Curse of the Pharaoh (1958) Space Escapade (1958) Selections from Rodgers and Hammerstein's South Pacific (1958) Confetti (1958) Love is a Fabulous Thing (1959) African Jazz (1959) Les Baxter's. レス・バクスター(Les Baxter、1922年 3月14日 - 1996年 1月15日)はアメリカ合衆国 テキサス州生まれの作曲家、編曲家、指揮者である。 マーティン・デニー と並び、 エキゾチカ (エキゾチック・サウンド)を代表する存在である。. Les Caméléons (1). remembering account, browser, and regional preferences. - New York 1987, pp. Explore Ian's Imagery's 12,832 favorites on Flickr!. Find more 101 Strings / Les Baxter - Que Mango! vinyl records and LPs. Den tidligere Disney-stjernen Maitland Ward Baxter kaller søksmålet for en «vits og en advarsel til andre pornostjerner». Abandoning a concert career as a pianist, he turned to popular music as a singer. Les Inrockuptibles (3). I noticed that there seems to be a lot of unfair rants about Spencer's bio on Les Baxter. Les Baxter - Santa Claus' Party Publicado por letvel en Este blog lo comparto con todos aquellos que como yo tienen gran pasión por la música. A pair of classic albums from Clarence Carter – back to back on a single CD, with bonus tracks too! First up is the album This Is Clarence Carter – a seminal debut from the great Clarence Carter – proof that there was still a lot of genius to be heard in southern soul at the time!. Drummer Keith Guster was the only constant member; some of the musicians passing through went on to commercial success with Journey and Jefferson Starship (keyboardist Pete Sears) and King Crimson (bassist Gordon Haskell). fr (@brocabrac. Les Baxter) Play on Apple Music - Lunar Rhapsody (feat. Tracklist: 1. Download Password: discogz. Leslie Thompson "Les" Baxter (March 14, 1922 - January 15, 1996) was an American musician and composer. JACKSON 5 - Skywriter - 1973. The Soul Of The Drums. 1989 Demo A Light In The Darkness EP Compilation Tracks Collosus LP download. COM http LAST 10 MEDIAFIRE SEARCHES: aneki ep 3, the exotic moods of les baxter blogspot, intitle index of patch office 2013, buschido zeiten, pna. He then enrolled in a course at the computer graphics lab at the Universitat de les Illes Balears where he spent many years first as a student and later as an instructor in the postgraduate program. [7] : 66 In a 1981 interview with Soundtrack magazine, Baxter said that these sorts of statements were the results of a smear campaign by a disgruntled orchestrator. les albums sont uploades sur mediafire ou megaupload. Artist: Les Baxter Title: Jewels Of The Sea Year Of Release: 1961/2012 Label: Cherry Red [ACMEM232CD] Genre: Jazz, Space-Age, Exotica, Lounge, Easy Listening Quality: 320 kbps / FLAC (tracks+cue,log) / WAV (tracks) Total Time: 1:19:25 Total Size: 181 mb / 434 mb / 801 mb WebSite: Album Preview. We are the world was sang by popular artists in the 80's and it was origonally created as a foundraising to bring money to feed people in Africa who were suffering from famine. Songtexte von Les Baxter mit deutschen Übersetzungen, Lyrics, Liedtexte und Musik-Videos kostenlos auf Songtexte. collection on a move like many and is a great commenter/reporter 'on the scene' from the 80's to corroborate my selections for you all, 80sonspeed neighbor blogspot, Viacomclosedmedown on YouTube (no longer) your current host and RIP master to complain to about stitches together mp3. Les Baxter (March 14, 1922 – January 15, 1996) was an American musician and composer. You can find the progressive rock music discographies from 11,285 bands & artists, 63,650 albums (LP, CD and DVD), 1,738,186 ratings and But nevertheless, in addition to writing (or rather, finishing) another chapter in Miles Davis's discography, in this particular genre it's a fine release combining the. Приобретайте пластинки, компакт-диски и многое другое от Les Baxter на маркетплейсе Discogs. You will get 2 track for free after confirming your account!. I have one Don Tiare record The Music of Les Baxter. In his career, he has score more than 120 films, with 15 titles in 1957 alone!. Cet Air-La - April March (A surrealist psycho thriller set in Western England. After a while, owners Sue and Les Baxter realized that just having a character show up was not enough to make the birthday party complete. But why should the desperate bachelor of the 1950s turn to Les Baxter's mix of melody and jungle rhythms for romantic help? The genre of "exotica," of which Baxter's album is arguably the first album-length example, is a complex cultural phenomena that I could not hope to unpack here. Ditch ThePirateBay and come to us instead to find the latest TV shows, Movies, Games, Software and Anime with the most verified torrents right here. ‘Happy Birthday Edward Lear’ will feature work by an astonishing range of over 40 artists and illustrators, including Ceri Amphlett, Glen Baxter, Peter Blegvad, Geoff Grandfield, Jonny Hannah, Times cartoonist Morten Mørland, Simon Pemberton, and Vaughan Oliver, who created the artwork for all of the Pixies’ albums. One note of apology though there's a small skip on track three. Heavy Music Archive is one of the largest free archives of metal music. The Baxter Hostel. I noticed that there seems to be a lot of unfair rants about Spencer's bio on Les Baxter. 60: Ritual Of The Savage / The Passions (With Bas Sheva) 2006: 20: 235: Buy now Add to cart. Choose among free epub and Kindle eBooks, download them or read them online. Les Baxter, que apareció por última vez en público en el Century Club de Century City en noviembre de 1995, falleció el 15 de enero de 1996. Your daily source for all things TV, movies, and games, including Star Wars, Fallout, Marvel, DC and more. Sur Rough Trade, il ne vendît pas la queue d’un album avec Len Parrot’s Memorial Lift et Floor Show , pourtant deux fois neuf merveilles pluvieuses. Baxter discography release. Les Baxter; 14 марта 1922 — 15 января 1996) — американский пианист, композитор и аранжировщик, пик популярности которого пришёлся на 50-е и 60-е годы XX века. Review from the AMG: One of the most unique albums of the 1970s, R. Attack Of The Newspaper Man 8. These poems brim with wit, feeling, shapeliness, connections, and. Maitland Ward Baxter gikk til pornoindustrien som 42-åring, og kan tjene over en halv million kroner i måneden. Influences by bands like Siege,Negative FX,and SOA. To enable this, create a smart collection named All Products and set the condition to 'Product price is greater than 0'. Here you can download full discography: all albums of Ozzy Osbourne in MP3 format (320 kbps). – Les Baxter (1970) #exoticamusic #101strings #lesbaxter #groovyloungemusic. Hey, everyone! Today I'm celebrating that I've passed 100,000 hits on this blog! Woo hoo! What a great way to get in the spirit of Christmas! And that's a perfect segue into today's Christmas music offering, "The Spirit of Christmas with the Living Strings". Harry Revel, Les Baxter & Dr. - Vancouver 2006, pp. Música instrumental é aquela que é valorizada pela condução instrumental, com pouco ou nenhum vocal. 12 - Sheldon Harris: Blues Who's Who - A Bibliographical Dictionary of Blues Singers. LES BAXTER AND HIS ORCHESTRA : Les Baxter (arr) Personnel unknown including vcl chorus : Hollywood, Capitol Studios, Melrose Avenue, May 27, 1954 : a: 12762: The High And The Mighty. Frank Pourcel - Les Baxter's La Femme Midnight On The Cliffs Ports Of Pleasure Space Escapade Selections From "South Pacific" Confetti Love Is A Fabulous Thing African Jazz Jungle Jazz Wild Guitars The Sacred Idol Teen Drums Baxter's Best Young Pops Broadway '61 Jewels Of The Sea Sensational! Original Quiet Village The Sounds Of Adventure. 12 - Sheldon Harris: Blues Who's Who - A Bibliographical Dictionary of Blues Singers. Some of the musicians to pass through the group were David Crosby, Bob Ingram and Phil Campos. su böreği yemek şakaları yemek günlüğüm blogspot. Les Baxter - Fantasie Impromptu (Chopin) Les Baxter - Clair De Lune (Debussy) Les Baxter - Prelude in C minor (Rachmaninoff) The Doors - The Severed Garden Messer Chups - Tchaikovsky Beat Henry Mancini - Moonlight Sonata Quincy Jones - Greensleeves and All That Jazz Gershon Kingsley - For Alisse Beethoven Swingle Singers - Aria France Gall - I. I'd like to present you with the 7X7 Link Award for your great blog, The Vintage Film Costume Collector! You'll need to reveal seven random things about yourself, seven of your blog posts, and pass on the award to seven of your favorite blogs. MEGA provides free cloud storage with convenient and powerful always-on privacy. Gérer les cookies. "Ebb Tide" is a smoker. While searching around I fell on this groovy theme song to the 60's cult classic film Wild In The Streets - things seemed so straight forward then!!!. Blue Tango / Leroy Anderson 1951 #1 (5) 13. Roy was kind enough to send me a copy of his exhaustive Curtis discography, a labor of love compiled over the past thirty-odd years, which details every known session that the King ever played on. Les Baxter). Albums include Music Out of the Moon, Inherent Vice, and Le sacre du sauvage (Ritual of the Savage). Les Boom 18-track mashup album; Kenny & The Casuals Remix; Les Rita Mitsouko vs The Beatles; Bjork vs The Music Emporium; They Might Be Giants vs William Orbit; Cardi B vs Fatboy Slim vs Darren Emerson; C. Baxter est un film réalisé par Jérôme Boivin avec Lise Delamare, Jean Mercure. Nos anos 30, 40 e 50 era comum ver as big bands do jazz, blues, boogie woogie, tango, etc. Legal Name: Baxter, Stephen Michael. Buy One, Get One 50% Off Coupons & Deals Sale. Customize your pictures with the Glitterfy Glitter Graphics maker, Create words with Glitter Text for profile comments, Photo Flipbooks for Orkut Scraps. You will get 2 track for free after confirming your account!. Accédez aux dernières transactions de l'action BAX - US0718131099, au carnet d'ordre, comparez l'évolution de la cotation sur les derniers jours, semaines ou mois. Chart positions This show was 4 th in the global jazz chart. After working as an arranger and composer for swing bands, he developed his own style of easy listening music, known as exotica. His innovative recordings, arrangements, and compositions have influenced a wide range of artists from Jefferson Airplane to Quentin Tarantino. Track your radio and television airplay and take your promotion to the next level. Estiva & Tania Zygar - Death Of Me 08. Les Boom 18-track mashup album; Kenny & The Casuals Remix; Les Rita Mitsouko vs The Beatles; Bjork vs The Music Emporium; They Might Be Giants vs William Orbit; Cardi B vs Fatboy Slim vs Darren Emerson; C. Blogger makes it simple to post text, photos and video onto your personal or team blog. Les catalogues raisonnés pré-Lumières de Pierre-Jean Mariette (1694-1774) et Edme-François Gersaint (1694-1750), ainsi que la bibliothèque mobile d’Aby Warburg (1866-1929) et la structure « informatique » du N. After leaving Les Brown & His Band of Renown to embark on a solo career, she recorded more than 650 songs from 1947 to 1967, which made her one of the most popular and acclaimed singers of the 20th century. As such, it's a fascinating time-travel back to '60s kitsch America, but the one-man organ band ain't exactly on t he order of Les Baxter's complex arrangements (tho Princess Carloa's "Hawaiian Weddi ng Song" is. Bbigpigg (1). Type: Orchestra, Founded: 1957, Dissolved: 1981, Area: United States. Desert Column Forum. The Academy Award Winners. Monday, May 19, 2008. The Scary Dream 5. The Soul Of The Drums. Steppenwolf - Discography 1968-2009. Excellent post. Discography. Includes unlimited streaming via the free Bandcamp app, plus high-quality downloads of Rains In The Tropics, Sondi, Les Baxter's Jungle Jazz, Katanga!. Mehr von Les Baxter gibt es im Shop. 0 out of 5 stars Get the 4 " Les Baxter: Eight Classic Albums" instead. com receives less than 1% of its total traffic. Jazz, funk, music from one of the Tracklib-curated collections, flip children's songs or go punk, or explore one of the recent additions by exotica pioneer Les Baxter and reggae/dub legends Sly & Robbie. A real GROOVIE score by LES BAXTER, king of Exotica/Lounge/Easy Listening, this time in a Funky biker rhythm mood. Les Baxter (1) Les Négresses Vertes (1) Les Satellites (1) Limousine (1) LITO BARRIENTOS (1) Live Mix (2) Lloyd Miller (1) Lo'Jo (1) Loga R. Obviously all of you know the story involving the church burning and the death of Euronymous. LES SPRITZ (1). We are the internet's go-to source for discerning what is true and what is total nonsense. Les Baxter). Exotica became a massively popular trend in the '50s. 902 is situated in Gauteng Johannesburg CBD. Buy Les Baxter's album titled The Les Baxter Collection: 1943-1962. This title is a cover version of The Poor People Of Paris as made famous by Les Baxter. , Les Baxter And His Orch. FULL DISCOGRAPHY. New album Les Baxter - African Jazz (2020) Hi-Res available for download on site losslessalbums. To enable this, create a smart collection named All Products and set the condition to 'Product price is greater than 0'. He got arranging jobs with Gloria Lasso and other French singers but there was a bias about hiring Americans. All Records 190. Complete discography, ratings, reviews and more. Abandoning a concert career as a pianist, he turned to popular music as a singer. I noticed that there seems to be a lot of unfair rants about Spencer's bio on Les Baxter. Votre filter discography blogspot va faire envie à tous vos proches, croyez-nous!" AliExpress compare pour vous les différents fournisseurs et toutes les Alors n'attendez plus, offrez-vous votre/vos filter discography blogspot! Qualité et petits prix garantis, il ne vous reste plus qu'à valider votre panier et. McGinley ( Marine Captain Hendrix ) Bokeem Woodbine ( Sergeant Crisp ) Claire Forlani ( Jade Angelou ) Gregory Sporleder ( Captain Frye ) Tony Todd ( Captain Darrow ). Complete Discographies Blogspot. レス・バクスター(Les Baxter、1922年 3月14日 - 1996年 1月15日)はアメリカ合衆国 テキサス州生まれの作曲家、編曲家、指揮者である。 マーティン・デニー と並び、 エキゾチカ (エキゾチック・サウンド)を代表する存在である。. Life is serious stuff, so a little kitsch goes a long way. 2) 1993 Les Plus Grands Succes De Raymond Lefevre (vol. "Baxter developed a post-swing style in the late forties and early fifties of spectacular orchestral writing, full of timpani and hand drums, tumbling violin lines, harps, flutes, marimbas, celesta, Latin rhythm vamps, the cries of animals, choral moans, and flamboyant singers, creating imaginary soundscapes which he helped evoke with titles. This is normally one of the priciest Baxter LPs out there (commonly selling for $75+ for a decent copy, and often higher). TorrentFunk is the fastest download search engine. New working link!. Press To Play (album) [2002]. When you visit our website, we store cookies on your browser to collect information. a selective discography. There was an immense tangle of stuff, including the metal box below. Home » Search Center » Results: Les Baxter. Capitol 2479: d: 11405. remembering privacy and security settings. The Jazz Discography by Tom Lord, is the most complete Jazz catalog of recording information ever produced - available as books and on CD-ROM. Hey, everyone! Today I'm celebrating that I've passed 100,000 hits on this blog! Woo hoo! What a great way to get in the spirit of Christmas! And that's a perfect segue into today's Christmas music offering, "The Spirit of Christmas with the Living Strings". English Italiano Français Español 中文 العربية. I'm a bloke just turned fifty living in Newcastle, a wonderful city in the North East of England. Discovery Leal Leave the Planet Leaving Richmond Lebanon LEBEND Leche Plus Led Zeppelin Leeds Leicester Leisure Walks Leland Lemolo Lentamente Leões de Marte Leones Les Autres Les Discrets Less Western Let's Be Loveless Letting Up Despite Great Faults Lev Snowe Lewis the Light Li(F). A pair of classic albums from Clarence Carter – back to back on a single CD, with bonus tracks too! First up is the album This Is Clarence Carter – a seminal debut from the great Clarence Carter – proof that there was still a lot of genius to be heard in southern soul at the time!. After working as an arranger and composer for swing bands, he developed his own style of easy listening music, known as exotica. Save Your Love For Me (Buddy Johnson) 3:57 6. Les Baxter (7) Les Humphries (1) Les Reed (2) library (4) Living Brass and Living Marimbas (1) Living Presence Stereo (3) London Pops Orchestra (1) Los Bandidos (1) Lounge (19) Loungecore (1) Malcolm Lockyer Orchestra (1) Mambo (1) Man From UNCLE (1) Man In A Suitcase (1) Mantovani (3) Manuel And The Music Of The Mountains (2) Marble Arch (9. This category is for music, used in figure skating programs, that was composed by Les Baxter. - J June 24, 2007 3:39 PM. Lonely Tree 6 Download Password: discogz. Michael Joseph Jackson (August 29, 1958 – June 25, 2009) was an American singer, dancer and entertainer. gr funktioniert nicht oder gibt es andere Zugangsprobleme? Die aktuelle Hannonlane-Discography Blogspot Wenn Hannonlane-Discography Blogspot funktioniert, aber Sie die Website nicht erreichen können, versuchen Sie bitte eine der folgenden. Well known to the swinging bachelor pad compilation listener, Baxter actually scored tons of amazing genre flicks throughout the 50’s, 60’s and 70’s. Internet Archive is a non-profit digital library offering free universal access to books, movies & music, as well as 477 billion archived web pages. 101 NORTH (2) 2 Good To Go (1). CBC Listen Media Player. Club Service Director P. Discography. Sign-up for email news, sales alerts & more: x Thank You!. Tracklist: A1 - Shooting Star - 2:01 A2 - Moonscape - 3:07 A3 - Mr. When you visit our website, we store cookies on your browser to collect information. Community-created profile of Baxter Enterprises in Winchester, TN including executive profiles, news and insights, videos and contact information. wav" WAVE TRACK 02 AUDIO TITLE "The Sphinx" PERFORMER "Les Baxter" INDEX 01 00:00:00 FILE "03 Les Baxter - The Cask Of Amontillado. 700s pages of research including thorough picture discography, filmography. Shop our newest and most popular Les Baxter sheet music such as "The High and the Mighty" , "I Love Paris" , or click the button above to browse all Les Baxter sheet. The novelty hits and the movie themes. Baxter (Packt account required). Year: Catlog number: Title: Composer: 1951: 1952: Posted by LanceHall at Blog Archive 2017 (3) November (1) Les Baxter 1950s. Read Full Biography. , Hollywood, CA – Kay Starr (with Frank De Vol And His Orchestra) [overdub session [1]: May 25 Dave Cavanaugh [piano], [2] unknown date: Les Baxter [vcl chorus]] 080 6062-4 MISSISSIPPI F1072/T 1468 T/ST 2106 7-94080-2 CCM 276-2 081 6063-2 HE'S A GOOD MAN TO HAVE AROUND [1] F1072,. This is an excellent soundtrack by the renowned Les Baxter, and exceptional in that it is a real return to his exotica sound. Bongo Party with Les Baxter (1957) Round the World with Les Baxter (1957) Midnight on the Cliffs (1957) Ports of Pleasure (1957) Pharaoh's Curse (aka) Curse of the Pharaoh (1958) Space Escapade (1958) Selections from Rodgers and Hammerstein's South Pacific (1958) Confetti (1958) Love is a Fabulous Thing (1959) African Jazz (1959) Les Baxter's. Subscribe to Reggaediscography - (Blog - Video - Newsletter). Les baxter discography blogspot. 4 years ago4 years ago. The Abbott and Costello Show mixed comedy with musical interludes (by vocalists such as Connie Haines, Ashley Eustis, the Delta Rhythm Boys, Skinnay Ennis, and the Les Baxter Singers). TorrentFunk is the fastest download search engine. Author: Stephen Baxter Author Record # 102. Thanks! Enjoy! View my complete profil. Les Baxter discography and songs: Music profile for Les Baxter, born 14 March 1922. 23 Followers•28 Following. Artist information Sort name: Baxter, Les Type: Person Gender: Male Born: 1922-03-14 Born in: Mexia, Texas, United States Died: 1996-01-15 (aged 73) Died in: Newport Beach, California, United States. LES BAXTER The Lost Episode Of Les Baxter (21. Piece by piece my body is tattooed with motifs from legendary tiki bar menues of the 50s and 60s. Business Info. FULL Cosi fan tutte Toulouse 2020. Grateful Dead - Dave's Picks Volume 35: Philadelphia Civic Center, Philadelphia, PA 4/20/84 (2020). Producer: Ken Nelson) 159 6998 LORELEI F2380/Cattle Compact CCD-284 160 6999 BEAUTIFUL BROWN EYES F1393 161 7000 AT THE CLOSE OF A LONG LONG DAY F1393/C2-36591 162 7001 DON'T BE LONELY F1554/Cattle Compact. Roger Corman with electronic score by Les Baxter illustration by Harry Clarke from the 1919 edition of. Steppenwolf - Discography 1968-2009. There were two late-60s singles by Revelation with the participation of Duke Baxter (and, in one case, of Mike Post!): 1. Non può, pertanto, considerarsi un prodotto editoriale ai sensi della legge italiana n. Use tags to search jazz articles, news and press releases. MediaFire is a simple to use free service that lets you put all your photos, documents, music, and video in a single place so you can access them anywhere and share them everywhere. Autumn Leaves / Roger Williams 1955 #1 (4) 16. Les Baxter: Ski Party: 30 June 1965: Alan Rafkin: Robert Kaufman: Guy Hemric & Jerry Styner: How to Stuff a Wild Bikini: 14 July 1965: William Asher: William Asher, Leo Townsend: Les Baxter: Sergeant Deadhead: 18 August 1965: Norman Taurog: Louis M. 1987 Les Plus Grands Succes De Raymond Lefevre (vol. LES BAXTER AND HIS ORCHESTRA AND CHORUS : Les Baxter (arr) Personnel unknown including Danny Welton ° (hca) unknown vcl chorus : Hollywood, Capitol Studios, Melrose Avenue, April 6, 1953 : a: 11402: Ruby ° (omit chorus) Capitol 2457: b: 11403: A Little Love (Can Go A Long, Long Way) Capitol 2457: c: 11404: I Love Paris. Posts about Les Baxter written by JimQ. Not a complaint--still great stuff--but where is all the Baxter horror buried?. Les Enfants Terribles: Another Country LP, 1990 [Midnight Music - Να και ένα συγκρότημα από την πόλη Tours της Γαλλίας, το οποίο δεν έχουμε δει να έχει ανέβει σε μπλόγκ. De jolis petits contes pour enfants, voilà à quoi ressemblent ces petites miniatures pop lo-fi. daily news for a professional and creative audience. Mehr von Les Baxter gibt es im Shop. Includes unlimited streaming via the free Bandcamp app, plus high-quality downloads of Rains In The Tropics, Sondi, Les Baxter's Jungle Jazz, Katanga!. Soul Groove 04.